#TITLE:1st Stage;
#SUBTITLE:(Sharpnel Remix);
#ARTIST:DJ Sharpnel;
#TITLETRANSLIT:;
#SUBTITLETRANSLIT:;
#ARTISTTRANSLIT:;
#CREDIT:;
#BANNER:1ststage-bn.jpg;
#BACKGROUND:1ststage-bg.jpg;
#LYRICSPATH:;
#CDTITLE:cd-yanah.PNG;
#MUSIC:1st Stage (Sharpnel Remix).mp3;
#OFFSET:-0.411;
#SAMPLESTART:113.973;
#SAMPLELENGTH:12.000;
#SELECTABLE:YES;
#BPMS:0.000=179.280;
#STOPS:;
#BGCHANGES:;
// cache tags:
#FIRSTBEAT:16.000;
#LASTBEAT:582.250;
#SONGFILENAME:Songs/nhac/1st Stage/1st Stage (Sharpnel Remix).sm;
#HASMUSIC:1;
#HASBANNER:1;
#MUSICLENGTH:203.546;
// end cache tags

//---------------dance-single - Blank----------------
#NOTES:
     dance-single:
     Blank:
     Hard:
     12:
     1.000,1.000,1.000,0.088,1.000,1679.000,274.000,18.000,0.000,4.000:

0000
0000
0000
0000
,
0000
0000
0000
0000
,
0000
0000
0000
0000
,
0000
0000
0000
0000
,
1000
0000
0010
0000
0001
0000
0010
0000
0000
0000
0100
0000
0010
1000
0010
1000
,
0100
0000
0000
0000
0001
0000
0000
0000
0010
0000
0000
0000
1000
0000
0000
0000
0000
0000
0000
0000
0001
0100
1000
0000
0001
0000
1000
0000
0001
0000
1000
0000
,
0100
0000
0001
0000
1000
0000
0010
0000
0000
0000
1000
0000
0001
0010
0100
0000
,
1000
0000
0001
0000
0100
0000
0010
0000
1100
0000
0000
0101
0000
0000
0011
0000
,
0110
0000
1000
0000
0001
0000
0100
0010
0001
0010
0100
0000
1000
0100
0010
0001
,
1000
0000
0000
0000
0001
0000
0000
0000
0010
0000
0000
0000
1000
0000
0100
0000
0001
0000
0000
0000
0010
0100
1000
0000
0001
0000
0010
0000
0001
0000
0010
0000
,
1000
0000
0100
0010
1000
0000
0001
0010
0100
1000
0010
0000
0001
0100
0010
0000
,
0001
0000
1000
0000
0010
0000
1000
0000
0001
0000
0000
1000
0000
0000
0001
0000
,
0110
0000
1000
0000
0001
0000
0100
1000
0010
0100
0001
0000
0010
1000
0010
0000
,
0001
0000
0000
0000
1000
0000
0000
0000
0010
0000
0000
0000
0001
0000
0100
0000
1000
0000
0000
0000
0010
0100
0001
0000
1000
0000
0100
0000
1000
0000
0100
0000
,
0001
0010
0100
1000
0001
0010
0100
1000
0001
0010
0100
1000
0001
0010
0100
1000
,
0010
0100
0010
0100
0010
1000
0010
1000
0001
0000
0010
0100
1001
0000
0010
0000
,
0101
0000
1000
0010
0101
0000
0010
1000
0101
0000
1000
0010
0101
0000
0010
1000
,
0110
0000
1000
0001
0110
0000
0001
1000
0110
0000
1000
0001
0110
0000
0001
1000
,
0011
0000
1000
0100
0011
0000
0100
1000
0011
0000
1000
0100
0011
0000
0100
1000
,
0110
0000
0001
1000
0110
0000
1000
0001
0110
0000
0001
1000
0110
0000
1000
0001
,
1010
0000
0001
0100
1010
0000
0100
0001
1010
0000
0001
0100
1010
0000
0100
0001
,
1100
0000
0001
0010
1100
0000
0010
0001
1100
0000
0001
0010
1100
0000
0010
0001
,
0110
0000
1000
0001
0110
0000
0001
1000
0110
0000
1000
0001
0110
0000
0001
1000
,
0101
0000
0010
1000
0101
0000
1000
0010
0101
0000
0010
1000
0101
0000
1000
0010
,
1001
0000
0010
0100
1001
0000
0100
0010
1001
0000
0010
0100
1001
0000
0100
0010
,
1100
0000
0010
0001
1100
0000
0001
0010
1100
0000
0010
0001
1100
0000
0001
0010
,
0101
0000
0010
1000
0101
0000
1000
0010
0101
0000
0010
1000
0101
0000
1000
0010
,
1001
0000
0100
0010
1001
0000
0010
0100
1001
0000
0100
0010
1001
0000
0010
0100
,
0011
0000
1000
0100
1000
0000
0010
0100
0010
0000
0001
0010
0001
0000
1000
0001
,
1000
0000
0010
0100
0010
0000
0100
0001
0100
0000
1000
0010
1000
0000
0001
1000
,
0001
0000
0100
0001
1000
0010
0100
0001
1000
0010
0100
0001
1000
0010
0100
0001
,
1010
0000
0000
1010
0000
0000
1010
0000
,
1010
0000
0100
0001
1010
0000
0001
0100
1010
0000
0100
0001
1010
0000
0001
0100
,
1010
0000
0100
0001
1010
0000
0001
0100
1010
0000
0110
0000
0011
0000
1010
0000
,
0110
0000
0001
1000
0110
0000
1000
0001
0110
0000
0001
1000
0110
0000
1000
0001
,
0110
0000
0001
1000
0110
0000
1000
0001
0110
0000
1010
0000
0011
0000
0110
0000
,
0101
0000
0010
1000
0101
0000
1000
0010
0101
0000
0010
1000
0101
0000
1000
0010
,
0101
0000
0010
1000
0101
0000
1000
0010
0101
0000
0110
0000
1100
0000
0101
0000
,
0011
0000
0100
1000
0011
0000
1000
0100
0011
0000
0100
1000
0011
0000
1000
0000
,
0101
0000
0010
1000
0101
0000
1000
0010
0101
0000
0010
1000
0101
0000
0000
0000
,
0011
0000
1000
0100
0011
0000
0100
1000
0011
0000
1000
0100
0011
0000
0100
1000
,
0011
0000
1000
0100
0011
0000
0100
1000
0011
0000
1001
0000
0101
0000
0011
0000
,
1001
0000
0100
0010
1001
0000
0010
0100
1001
0000
0100
0010
1001
0000
0010
0100
,
1001
0000
0100
0010
1001
0000
0010
0100
1001
0000
0011
0000
0101
0000
1001
0000
,
1100
0000
0001
0010
1100
0000
0010
0001
1100
0000
0001
0010
1100
0000
0010
0001
,
1100
0000
0001
0010
1100
0000
0010
0001
1100
0000
1001
0000
1010
0000
1100
0000
,
0101
0000
1000
0010
0101
0000
0010
1000
0101
0000
1000
0010
0101
0000
0010
0000
,
1100
0000
0001
0010
0001
0010
0001
0010
0100
0000
0000
0000
0101
0000
0110
0000
,
0101
0000
0010
1000
0010
0000
0101
1000
0010
0000
0010
1000
0101
0000
0010
1000
,
0110
0000
0001
1000
0001
0000
0110
1000
0001
0000
0001
1000
0110
0000
0001
0100
,
1010
0000
0100
0001
0100
0000
1010
0001
0100
0000
0100
0001
1010
0000
0100
0001
,
0110
0000
1000
0001
1000
0000
0110
0001
1000
0000
1000
0010
0101
0000
0100
1000
,
0011
0000
1000
0100
1000
0000
0011
0100
1000
0000
1000
0100
0011
0000
1000
0100
,
1001
0000
0010
0100
0010
0000
1001
0100
0010
0000
0010
0100
1001
0000
0010
0001
,
1100
0000
0001
0010
0001
0000
1100
0010
0001
0000
0001
0010
1100
0000
0001
0010
,
1001
0000
0100
0010
0100
0000
1001
0010
0100
0000
0100
1000
0011
0000
0001
0100
,
1010
0000
0100
0001
0100
0000
1010
0001
0100
0000
0100
0001
1010
0000
0100
0001
,
0110
0000
1000
0001
1000
0000
0110
0001
1000
0000
1000
0001
0110
0000
1000
0010
,
0101
0000
0010
1000
0010
0000
0101
1000
0010
0000
0010
1000
0101
0000
0010
1000
,
0110
0000
0001
1000
0001
0000
0110
1000
0001
0000
0001
0100
1010
0000
0010
0001
,
1100
0000
0001
0010
0001
0000
1100
0010
0001
0000
0001
0010
1100
0000
0001
0010
,
1001
0000
0100
0010
0100
0000
1001
0010
0100
0000
0100
0010
1001
0000
0100
1000
,
0011
0000
1000
0100
1000
0000
0011
0100
1000
0000
1000
0100
0011
0000
1000
0100
,
0011
0000
0000
0000
,
1001
0100
0010
0001
0010
0100
1000
0100
0010
0001
0010
0100
1000
0100
0010
0001
,
1000
0100
0011
0000
0000
0010
0010
0000
1100
0000
0000
1100
0000
0000
1100
0000
,
0011
1000
0100
0010
0100
1000
0001
1000
0100
0010
0100
1000
0001
1000
0100
0010
,
0001
1000
0110
0000
0000
0100
0100
0000
1001
0000
0000
1001
0000
0000
1001
0000
,
0110
0001
1000
0010
1000
0001
0100
0001
1000
0010
1000
0001
0100
0001
1000
0010
,
0100
0001
1010
0000
0000
1000
1000
0000
0101
0000
0000
0101
0000
0000
0101
0000
,
1010
0100
0001
1000
0001
0100
0010
0100
0001
1000
0001
0100
0010
0100
0001
1000
,
0010
0100
1001
0000
0000
0001
0001
0000
0110
0000
0000
0110
0000
0000
0110
0000
,
1000
0100
0010
0001
0010
0100
1000
0100
0010
0001
0010
0100
1000
0100
0010
0001
,
1000
0100
0010
0001
0010
0100
1000
0100
0010
0001
0010
0100
1001
0000
0000
0000
,
0110
0001
1000
0010
1000
0001
0100
0001
1000
0010
1000
0001
0100
0001
1000
0010
,
0100
0001
1000
0010
1000
0001
0100
0001
1000
0010
1000
0001
0110
0000
0000
0000
,
1001
0010
0100
1000
0100
0010
0001
0010
0100
1000
0100
0010
0001
0010
0100
1000
,
0001
0010
0100
1000
0100
0010
0001
0010
0100
1000
0100
0010
1001
0000
0000
0000
,
0110
1000
0001
0100
0001
1000
0010
1000
0001
0100
0001
1000
0010
1000
0001
0100
,
0010
1000
0001
0100
0001
1000
0010
1000
0001
0100
0001
1000
0010
0100
0001
1000
,
0010
0000
0000
0000
0000
0000
0000
0000
0001
0010
0001
1000
0100
1000
0001
0010
,
0100
1000
0001
0010
0001
1000
0100
1000
0001
0010
0001
1000
0100
1000
0001
0010
,
0100
1000
0001
0010
0001
1000
0100
1000
0001
0010
0001
1000
0100
1000
0001
0010
,
1100
0000
0000
0000
0000
0000
0000
0000
1000
0100
0010
0001
1000
0100
0010
0001
,
0010
0001
1000
0100
1000
0001
0010
0001
1000
0100
1000
0001
0010
0001
1000
0100
,
0010
0001
1000
0100
1000
0001
0010
0001
1000
0100
1000
0001
0010
0001
1000
0100
,
1000
0010
0100
0001
0100
0010
1000
0010
0100
0001
0100
0010
1000
0010
0100
0001
,
1000
0010
0100
0001
0100
0010
1000
0010
0100
0001
0100
0010
1000
0010
0100
0001
,
0100
1000
0001
0010
0001
1000
0100
1000
0001
0010
0001
1000
0100
1000
0001
0010
,
0100
1000
0001
0010
0001
1000
0100
1000
0001
0010
0001
1000
0100
1000
0001
0010
,
0001
0100
0010
1000
0010
0100
0001
0100
0010
1000
0010
0100
0001
0100
0010
1000
,
0001
0100
0010
1000
0010
0100
0001
0100
0010
1000
0010
0100
0001
0100
0010
1000
,
0011
0000
0000
1100
0000
0000
0110
0000
0000
0000
0000
0000
0001
0010
1000
0000
,
0110
0000
0000
0101
0000
0000
1100
0000
0000
0000
0000
0000
0000
0000
0000
0000
,
1001
0000
0000
0101
0000
0000
0110
0000
0101
0000
0000
0011
0000
0000
1100
0000
,
0110
0000
0000
1010
0000
0000
1000
0100
0011
0000
0000
1001
0000
0000
0220
0000
,
0000
0000
0000
0000
0000
0000
0000
0000
0032
0000
0000
0000
0000
0000
0000
0303
,
1000
0100
0010
0001
0010
0100
1000
0100
0010
0001
0010
0100
1000
0100
0010
0001
,
1000
0100
0010
0001
0010
0100
1000
0100
0010
0001
0010
0100
1000
0100
0010
0001
,
0100
0001
1000
0010
1000
0001
0100
0001
1000
0010
1000
0001
0100
0001
1000
0010
,
0100
0001
1000
0010
1000
0001
0100
0001
1000
0100
0010
0001
0010
0001
1000
0010
,
0001
0010
0100
1000
0100
0010
0001
0010
0100
1000
0100
0010
0001
0010
0100
1000
,
0001
0010
0100
1000
0100
0010
0001
0010
0100
1000
0100
0010
0001
0010
0100
1000
,
0001
0010
0100
1000
0100
0010
0001
0010
0100
1000
0100
0010
0001
0010
0100
1000
,
0001
0010
0100
1000
0100
0010
0001
0010
0100
1000
0100
0010
0001
0010
0100
1000
,
0110
0000
0000
0101
0000
0000
1001
0000
0000
0000
0000
0000
0010
1000
0100
0000
,
1001
0000
0000
0011
0000
0000
0101
0000
0000
0000
0000
0000
0000
0000
0000
0000
,
0110
0000
0000
0011
0000
0000
1001
0000
0011
0000
0000
1010
0000
0000
0101
0000
,
1001
0000
0000
1100
0000
0000
0100
0001
1010
0000
0000
0110
0000
0000
2002
0000
,
0000
0000
0000
0000
0000
0000
0000
0000
3020
0000
0000
0000
0000
0000
0000
0033
,
0100
1000
0001
0010
0001
1000
0100
1000
0001
0010
0001
1000
0100
1000
0001
0010
,
0100
1000
0001
0010
0001
1000
0100
1000
0001
0010
0001
1000
0100
1000
0001
0010
,
0001
0100
0010
1000
0010
0100
0001
0100
0010
1000
0010
0100
0001
0100
0010
1000
,
0001
0100
0010
1000
0010
0100
0001
0100
0010
1000
0001
0100
0001
1000
0010
1000
,
0010
0001
1000
0100
1000
0001
0010
0001
1000
0100
1000
0001
0010
0001
1000
0100
,
0010
0001
1000
0100
1000
0001
0010
0001
1000
0100
1000
0001
0010
0001
1000
0100
,
1000
0010
0100
0001
0100
0010
1000
0010
0100
0001
0100
0010
1000
0010
0100
0001
,
1000
0010
0100
0001
0100
0010
1000
0010
0100
0001
0100
0010
1000
0010
0100
0001
,
1100
0000
0000
0011
0000
0000
0110
0000
0000
0000
0000
0000
1000
0100
0001
0000
,
0110
0000
0000
1010
0000
0000
0011
0000
0000
0000
0000
0000
0000
0000
0000
0000
,
1001
0000
0000
1010
0000
0000
0110
0000
1010
0000
0000
1100
0000
0000
0011
0000
,
0110
0000
0000
0101
0000
0000
0001
0010
1100
0000
0000
1001
0000
0000
0220
0000
,
0000
0000
0000
0000
0000
0000
0000
0000
2300
0000
0000
0000
0000
0000
0000
3030
,
0001
0010
0100
1000
0100
0010
0001
0010
0100
1000
0100
0010
0001
0010
0100
1000
,
0001
0010
0100
1000
0100
0010
0001
0010
0100
1000
0100
0010
0001
0010
0100
1000
,
0010
1000
0001
0100
0001
1000
0010
1000
0001
0100
0001
1000
0010
1000
0001
0100
,
0010
1000
0001
0100
0001
1000
0010
1000
0001
0010
0100
1000
0100
1000
0001
0100
,
1000
0100
0010
0001
0010
0100
1000
0100
0010
0001
0010
0100
1000
0100
0010
0001
,
1000
0100
0010
0001
0010
0100
1000
0100
0010
0001
0010
0100
1000
0100
0010
0001
,
1000
0100
0010
0001
0010
0100
1000
0100
0010
0001
0010
0100
1000
0100
0010
0001
,
1000
0100
0010
0001
0010
0100
1000
0100
0010
0001
0010
0100
1000
0100
0010
0001
,
0110
0000
0000
1010
0000
0000
1001
0000
0000
0000
0000
0000
0100
0001
0010
0000
,
1001
0000
0000
1100
0000
0000
1010
0000
0000
0000
0000
0000
0000
0000
0000
0000
,
0110
0000
0000
1100
0000
0000
1001
0000
1100
0000
0000
0101
0000
0000
1010
0000
,
1001
0000
0000
0011
0000
0000
0010
1000
0101
0000
0000
0110
0000
0000
2002
0000
,
0000
0000
0000
0000
0000
0000
0000
0000
0203
0000
0000
0000
0000
0000
0000
3300
,
0010
0001
1000
0100
1000
0001
0010
0001
1000
0100
1000
0001
0010
0001
1000
0100
,
0010
0001
1000
0100
1000
0001
0010
0001
1000
0100
1000
0001
0010
0001
1000
0100
,
1000
0010
0100
0001
0100
0010
1000
0010
0100
0001
0100
0010
1000
0010
0100
0001
,
1000
0010
0100
0001
0100
0010
1000
0010
0100
0001
1000
0010
1000
0001
0100
0001
,
0100
1000
0001
0010
0001
1000
0100
1000
0001
0010
0001
1000
0100
1000
0001
0010
,
0100
1000
0001
0010
0001
1000
0100
1000
0001
0010
0001
1000
0100
1000
0001
0010
,
0001
0100
0010
1000
0010
0100
0001
0100
0010
1000
0010
0100
0001
0100
0010
1000
,
0001
0100
0010
1000
0010
0100
0001
0100
0010
1000
0010
0100
0001
0100
0010
1000
,
0002
0000
0000
0203
0000
0000
0320
0000
0000
0030
0000
0000
0001
1000
0100
0000
,
0002
0000
0000
0023
0000
0000
2030
0000
0000
3000
0000
0000
0000
0000
0000
0000
;
